Sacred.Games.S02.2019.720p.NF.DL.H265.Multi.DDP.5.1.MSUBS.Telly.E...

  • Category TV
  • Type HD
  • Language Hindi
  • Total size 12.7 GB
  • Uploaded By mkvCinemas
  • Downloads 14906
  • Last checked 3 weeks ago
  • Date uploaded 1 month ago
  • Seeders 52
  • Leechers 16

Infohash : B58A0AD42D3E188011B6970E9A8CF0A41090BAC5







********************************

Sacred.Games.S02.2019.720p.NF.DL.H265.Multi.DDP.5.1.MSUBS.Telly.Exclusive

********************************

Mediainfo:-
Format : Matroska
Format version : Version 4 / Version 2
File size : 1.84 GiB
Duration : 56mn 18s
Overall bit rate : 4 672 Kbps

Video
ID : 1
Format : HEVC
Format/Info : High Efficiency Video Coding
Codec ID : V_MPEGH/ISO/HEVC
Duration : 56mn 18s
Bit rate : 2 659 Kbps
Width : 1 280 pixels
Height : 720 pixels
Display aspect ratio : 16:9
Frame rate mode : Constant
Frame rate : 25.000 fps

Audio #1
ID : 2
Format : E-AC-3
Format/Info : Audio Coding 3
Format settings, Endianness : Big
Codec ID : A_EAC3
Duration : 56mn 18s
Bit rate mode : Constant
Bit rate : 640 Kbps
Channel(s) : 6 channels
Channel positions : Front: L C R, Side: L R, LFE
Sampling rate : 48.0 KHz
Compression mode : Lossy
Stream size : 258 MiB (14%)
Default : Yes
Forced : No

Audio #2
ID : 3
Format : E-AC-3
Format/Info : Audio Coding 3
Format settings, Endianness : Big
Codec ID : A_EAC3
Duration : 56mn 18s
Bit rate mode : Constant
Bit rate : 640 Kbps
Channel(s) : 6 channels
Channel positions : Front: L C R, Side: L R, LFE
Sampling rate : 48.0 KHz
Compression mode : Lossy
Stream size : 258 MiB (14%)
Language : English
Default : No
Forced : No

Audio #3
ID : 4
Format : E-AC-3
Format/Info : Audio Coding 3
Format settings, Endianness : Big
Codec ID : A_EAC3
Duration : 56mn 18s
Bit rate mode : Constant
Bit rate : 640 Kbps
Channel(s) : 6 channels
Channel positions : Front: L C R, Side: L R, LFE
Sampling rate : 48.0 KHz
Compression mode : Lossy
Stream size : 258 MiB (14%)
Language : Spanish
Default : No
Forced : No

Text #1
ID : 5
Format : UTF-8
Codec ID : S_TEXT/UTF8
Codec ID/Info : UTF-8 Plain Text
Title : en
Language : English
Default : No
Forced : No

Text #2
ID : 6
Format : UTF-8
Codec ID : S_TEXT/UTF8
Codec ID/Info : UTF-8 Plain Text
Title : es
Language : Spanish
Default : No
Forced : No

Text #3
ID : 7
Format : UTF-8
Codec ID : S_TEXT/UTF8
Codec ID/Info : UTF-8 Plain Text
Title : fr
Language : French
Default : No
Forced : No

Text #4
ID : 8
Format : UTF-8
Codec ID : S_TEXT/UTF8
Codec ID/Info : UTF-8 Plain Text
Title : it
Language : Italian
Default : No
Forced : No

Text #5
ID : 9
Format : UTF-8
Codec ID : S_TEXT/UTF8
Codec ID/Info : UTF-8 Plain Text
Title : ru
Language : Russian
Default : No
Forced : No

Text #6
ID : 10
Format : UTF-8
Codec ID : S_TEXT/UTF8
Codec ID/Info : UTF-8 Plain Text
Title : en
Language : English
Default : No
Forced : No


********************************

Wherever you Share our Stuffs, Give Proper Credit to "mkvCinemas @Team Telly"
We Keep All Torrents. In case of re-seed, please pm.


********************************





********************************



********************************

Files:

Sacred.Games.S02.2019.720p.NF.DL.H265.Multi.DDP.5.1.MSUBS.Telly.Exclusive
  • Sacred_Games_S02E08.mkv (1.9 GB)
  • Sacred_Games_S02E01.mkv (1.8 GB)
  • Sacred_Games_S02E04.mkv (1.7 GB)
  • Sacred_Games_S02E03.mkv (1.7 GB)
  • Sacred_Games_S02E02.mkv (1.5 GB)
  • Sacred_Games_S02E05.mkv (1.5 GB)
  • Sacred_Games_S02E07.mkv (1.4 GB)
  • Sacred_Games_S02E06.mkv (1.3 GB)
  • Tellytorrent.txt (0.0 KB)
  • mkvCinemas.txt (0.0 KB)

Comments

Code:

  • udp://tracker.coppersurfer.tk:6969/announce
  • udp://tracker.opentrackr.org:1337/announce
  • http://tracker3.itzmx.com:6961/announce
  • http://tracker1.itzmx.com:8080/announce
  • udp://p4p.arenabg.com:1337
  • udp://bt.firebit.co.uk:6969/announce
  • udp://tracker.leechers-paradise.org:6969/announce
  • udp://open.demonii.si:1337/announce
  • udp://tracker.tiny-vps.com:6969/announce
  • udp://thetracker.org:80/announce
  • udp://open.stealth.si:80/announce
  • udp://9.rarbg.com:2710/announce
  • udp://9.rarbg.me:2730/announce
  • udp://tracker.internetwarriors.net:1337/announce
  • http://tracker.electro-torrent.pl:80/announce