Star Wars: Episode II - Attack of the Clones (2002) [1080p x265 H...

  • Category Movies
  • Type HEVC/x265
  • Language English
  • Total size 5.2 GB
  • Uploaded By Prof
  • Downloads 255
  • Last checked 1 week ago
  • Date uploaded 1 week ago
  • Seeders 18
  • Leechers 6

Star Wars: Episode II - Attack of t...

ActionAdventureScience Fiction

(22 Years Before Episode IV) Ten years after the events of the Battle of Naboo, the galaxy has undergone significant changes. Anakin Skywalker and Obi-Wan Kenobi are assigned to protect Padmé from political separatists. As relationships form and powerful forces collide, these heroes face choices that will impact the destiny of the Republic.

Infohash : CCFA424840E191FBAFA0952FF70DE10DB33779BD



Ten years after initially meeting, Anakin Skywalker shares a forbidden romance with Padmé Amidala, while Obi-Wan Kenobi investigates an assassination attempt on the senator and discovers a secret clone army crafted for the Jedi.
Director: George Lucas
Writers: George Lucas (screenplay by), Jonathan Hales (screenplay by)
Stars: Hayden Christensen, Natalie Portman, Ewan McGregor

IMDB







Format : Matroska
Format version : Version 4
File size : 5.22 GiB
Duration : 2 h 22 min
Overall bit rate : 5 249 kb/s
Movie name : Star Wars: Episode II Attack of the Clones (2002)
Encoded date : UTC 2019-09-08 18:41:12
Writing application : mkvmerge v36.0.0 ('Is That Jazz?') 64-bit
Writing library : libebml v1.3.9 + libmatroska v1.5.2

Video
ID : 1
Format : HEVC
Format/Info : High Efficiency Video Coding
Format profile : Main [email protected]@Main
Codec ID : V_MPEGH/ISO/HEVC
Duration : 2 h 22 min
Bit rate : 3 376 kb/s
Width : 1 920 pixels
Height : 816 pixels
Display aspect ratio : 2.35:1
Frame rate mode : Constant
Frame rate : 23.976 (24000/1001) FPS
Color space : YUV
Chroma subsampling : 4:2:0
Bit depth : 10 bits
Bits/(Pixel*Frame) : 0.090
Stream size : 3.36 GiB (64%)
Writing library : x265 3.1+11-de920e0a3183:[Windows][MSVC 1922][64 bit] 10bit
Encoding settings : cpuid=1111039 / frame-threads=3 / numa-pools=12 / wpp / no-pmode / no-pme / no-psnr / no-ssim / log-level=2 / input-csp=1 / input-res=1920x816 / interlace=0 / total-frames=204943 / level-idc=0 / high-tier=1 / uhd-bd=0 / ref=4 / no-allow-non-conformance / no-repeat-headers / annexb / no-aud / no-hrd / info / hash=0 / no-temporal-layers / open-gop / min-keyint=23 / keyint=250 / gop-lookahead=0 / bframes=8 / b-adapt=2 / b-pyramid / bframe-bias=0 / rc-lookahead=80 / lookahead-slices=5 / scenecut=40 / radl=0 / no-splice / no-intra-refresh / ctu=64 / min-cu-size=8 / rect / no-amp / max-tu-size=32 / tu-inter-depth=1 / tu-intra-depth=1 / limit-tu=0 / rdoq-level=2 / dynamic-rd=0.00 / no-ssim-rd / signhide / no-tskip / nr-intra=0 / nr-inter=0 / no-constrained-intra / strong-intra-smoothing / max-merge=3 / limit-refs=3 / limit-modes / me=3 / subme=3 / merange=57 / temporal-mvp / no-hme / weightp / no-weightb / no-analyze-src-pics / deblock=0:0 / sao / no-sao-non-deblock / rd=4 / no-early-skip / rskip / no-fast-intra / no-tskip-fast / no-cu-lossless / no-b-intra / no-splitrd-skip / rdpenalty=0 / psy-rd=0.30 / psy-rdoq=1.00 / no-rd-refine / no-lossless / cbqpoffs=0 / crqpoffs=0 / rc=crf / crf=18.0 / qcomp=0.60 / qpstep=4 / stats-write=0 / stats-read=0 / ipratio=1.40 / pbratio=1.30 / aq-mode=3 / aq-strength=1.00 / cutree / zone-count=0 / no-strict-cbr / qg-size=32 / no-rc-grain / qpmax=69 / qpmin=0 / no-const-vbv / sar=0 / overscan=0 / videoformat=5 / range=0 / colorprim=2 / transfer=2 / colormatrix=2 / chromaloc=0 / display-window=0cll=0,0 / min-luma=0 / max-luma=1023 / log2-max-poc-lsb=8 / vui-timing-info / vui-hrd-info / slices=1 / no-opt-qp-pps / no-opt-ref-list-length-pps / no-multi-pass-opt-rps / scenecut-bias=0.05 / no-opt-cu-delta-qp / no-aq-motion / no-hdr / no-hdr-opt / no-dhdr10-opt / no-idr-recovery-sei / analysis-reuse-level=5 / scale-factor=0 / refine-intra=0 / refine-inter=0 / refine-mv=0 / refine-ctu-distortion=0 / no-limit-sao / ctu-info=0 / no-lowpass-dct / refine-analysis-type=0 / copy-pic=1 / max-ausize-factor=1.0 / no-dynamic-refine / no-single-sei / no-hevc-aq / no-svt / no-field / qp-adaptation-range=1.00
Default : Yes
Forced : No

Audio #1
ID : 2
Format : AAC LC
Format/Info : Advanced Audio Codec Low Complexity
Codec ID : A_AAC-2
Duration : 2 h 22 min
Bit rate : 1 057 kb/s
Channel(s) : 7 channels
Channel layout : C L R Ls Rs Cb LFE
Sampling rate : 48.0 kHz
Frame rate : 46.875 FPS (1024 SPF)
Compression mode : Lossy
Delay relative to video : 9 ms
Stream size : 1.05 GiB (20%)
Language : English
Default : Yes
Forced : No

Audio #2
ID : 3
Format : AC-3
Format/Info : Audio Coding 3
Commercial name : Dolby Digital
Codec ID : A_AC3
Duration : 2 h 22 min
Bit rate mode : Constant
Bit rate : 224 kb/s
Channel(s) : 2 channels
Channel layout : L R
Sampling rate : 48.0 kHz
Frame rate : 31.250 FPS (1536 SPF)
Bit depth : 16 bits
Compression mode : Lossy
Stream size : 228 MiB (4%)
Title : Commentary
Language : English
Service kind : Complete Main
Default : No
Forced : No

Audio #3
ID : 4
Format : AC-3
Format/Info : Audio Coding 3
Commercial name : Dolby Digital
Codec ID : A_AC3
Duration : 2 h 22 min
Bit rate mode : Constant
Bit rate : 224 kb/s
Channel(s) : 2 channels
Channel layout : L R
Sampling rate : 48.0 kHz
Frame rate : 31.250 FPS (1536 SPF)
Bit depth : 16 bits
Compression mode : Lossy
Stream size : 228 MiB (4%)
Title : Archival Interviews
Language : English
Service kind : Complete Main
Default : No
Forced : No

Text #1
ID : 5
Format : PGS
Muxing mode : zlib
Codec ID : S_HDMV/PGS
Codec ID/Info : Picture based subtitle format used on BDs/HD-DVDs
Duration : 2 h 22 min
Bit rate : 36.9 kb/s
Count of elements : 2434
Stream size : 37.6 MiB (1%)
Language : English
Default : No
Forced : No

Text #2
ID : 6
Format : PGS
Muxing mode : zlib
Codec ID : S_HDMV/PGS
Codec ID/Info : Picture based subtitle format used on BDs/HD-DVDs
Duration : 2 h 22 min
Bit rate : 37.7 kb/s
Count of elements : 2444
Stream size : 38.4 MiB (1%)
Language : Italian
Default : No
Forced : No

Text #3
ID : 7
Format : PGS
Muxing mode : zlib
Codec ID : S_HDMV/PGS
Codec ID/Info : Picture based subtitle format used on BDs/HD-DVDs
Duration : 2 h 22 min
Bit rate : 43.6 kb/s
Count of elements : 2460
Stream size : 44.4 MiB (1%)
Language : Russian
Default : No
Forced : No

Text #4
ID : 8
Format : PGS
Muxing mode : zlib
Codec ID : S_HDMV/PGS
Codec ID/Info : Picture based subtitle format used on BDs/HD-DVDs
Duration : 2 h 22 min
Bit rate : 36.7 kb/s
Count of elements : 2182
Stream size : 37.3 MiB (1%)
Language : Bulgarian
Default : No
Forced : No

Text #5
ID : 9
Format : PGS
Muxing mode : zlib
Codec ID : S_HDMV/PGS
Codec ID/Info : Picture based subtitle format used on BDs/HD-DVDs
Duration : 2 h 22 min
Bit rate : 31.2 kb/s
Count of elements : 2220
Stream size : 31.7 MiB (1%)
Language : Croatian
Default : No
Forced : No

Text #6
ID : 10
Format : PGS
Muxing mode : zlib
Codec ID : S_HDMV/PGS
Codec ID/Info : Picture based subtitle format used on BDs/HD-DVDs
Duration : 2 h 22 min
Bit rate : 34.1 kb/s
Count of elements : 1956
Stream size : 34.7 MiB (1%)
Language : Czech
Default : No
Forced : No

Text #7
ID : 11
Format : PGS
Muxing mode : zlib
Codec ID : S_HDMV/PGS
Codec ID/Info : Picture based subtitle format used on BDs/HD-DVDs
Duration : 2 h 22 min
Bit rate : 38.4 kb/s
Count of elements : 2392
Stream size : 39.0 MiB (1%)
Language : Estonian
Default : No
Forced : No

Text #8
ID : 12
Format : PGS
Muxing mode : zlib
Codec ID : S_HDMV/PGS
Codec ID/Info : Picture based subtitle format used on BDs/HD-DVDs
Duration : 2 h 22 min
Bit rate : 33.2 kb/s
Count of elements : 1808
Stream size : 33.7 MiB (1%)
Language : Romanian
Default : No
Forced : No

Text #9
ID : 13
Format : PGS
Muxing mode : zlib
Codec ID : S_HDMV/PGS
Codec ID/Info : Picture based subtitle format used on BDs/HD-DVDs
Duration : 2 h 22 min
Bit rate : 34.2 kb/s
Count of elements : 1904
Stream size : 34.8 MiB (1%)
Language : Turkish
Default : No
Forced : No

Text #10
ID : 14
Format : PGS
Muxing mode : zlib
Codec ID : S_HDMV/PGS
Codec ID/Info : Picture based subtitle format used on BDs/HD-DVDs
Duration : 2 h 22 min
Bit rate : 35.0 kb/s
Count of elements : 2438
Stream size : 35.6 MiB (1%)
Language : Latvian
Default : No
Forced : No

Text #11
ID : 15
Format : PGS
Muxing mode : zlib
Codec ID : S_HDMV/PGS
Codec ID/Info : Picture based subtitle format used on BDs/HD-DVDs
Duration : 2 h 22 min
Bit rate : 37.8 kb/s
Count of elements : 2338
Stream size : 38.4 MiB (1%)
Language : Lithuanian
Default : No
Forced : No

Text #12
ID : 16
Format : PGS
Muxing mode : zlib
Codec ID : S_HDMV/PGS
Codec ID/Info : Picture based subtitle format used on BDs/HD-DVDs
Duration : 2 h 22 min
Bit rate : 538 b/s
Count of elements : 36
Stream size : 561 KiB (0%)
Language : Slovak
Default : No
Forced : No

Text #13
ID : 17
Format : PGS
Muxing mode : zlib
Codec ID : S_HDMV/PGS
Codec ID/Info : Picture based subtitle format used on BDs/HD-DVDs
Duration : 2 h 22 min
Bit rate : 32.2 kb/s
Count of elements : 2138
Stream size : 32.7 MiB (1%)
Language : Slovenian
Default : No
Forced : No

Text #14
ID : 18
Format : PGS
Muxing mode : zlib
Codec ID : S_HDMV/PGS
Codec ID/Info : Picture based subtitle format used on BDs/HD-DVDs
Duration : 2 h 21 min
Bit rate : 93.5 kb/s
Count of elements : 4598
Stream size : 94.9 MiB (2%)
Language : Italian
Default : No
Forced : No

Text #15
ID : 19
Format : PGS
Muxing mode : zlib
Codec ID : S_HDMV/PGS
Codec ID/Info : Picture based subtitle format used on BDs/HD-DVDs
Duration : 2 h 21 min
Bit rate : 82.6 kb/s
Count of elements : 3755
Stream size : 83.8 MiB (2%)
Language : Italian
Default : No
Forced : No

Text #16
ID : 20
Format : PGS
Muxing mode : zlib
Codec ID : S_HDMV/PGS
Codec ID/Info : Picture based subtitle format used on BDs/HD-DVDs
Duration : 2 h 21 min
Bit rate : 110 kb/s
Count of elements : 4650
Stream size : 112 MiB (2%)
Language : Russian
Default : No
Forced : No

Text #17
ID : 21
Format : PGS
Muxing mode : zlib
Codec ID : S_HDMV/PGS
Codec ID/Info : Picture based subtitle format used on BDs/HD-DVDs
Duration : 2 h 21 min
Bit rate : 96.7 kb/s
Count of elements : 3755
Stream size : 98.2 MiB (2%)
Language : Russian
Default : No
Forced : No

Text #18
ID : 22
Format : PGS
Muxing mode : zlib
Codec ID : S_HDMV/PGS
Codec ID/Info : Picture based subtitle format used on BDs/HD-DVDs
Duration : 2 h 21 min
Bit rate : 2 447 b/s
Count of elements : 510
Stream size : 2.48 MiB (0%)
Language : English
Default : No
Forced : No

Text #19
ID : 23
Format : PGS
Muxing mode : zlib
Codec ID : S_HDMV/PGS
Codec ID/Info : Picture based subtitle format used on BDs/HD-DVDs
Duration : 2 h 21 min
Bit rate : 2 047 b/s
Count of elements : 366
Stream size : 2.08 MiB (0%)
Language : English
Default : No
Forced : No

Text #20
ID : 24
Format : PGS
Muxing mode : zlib
Codec ID : S_HDMV/PGS
Codec ID/Info : Picture based subtitle format used on BDs/HD-DVDs
Duration : 2 h 22 min
Bit rate : 249 b/s
Count of elements : 36
Stream size : 260 KiB (0%)
Language : English
Default : No
Forced : No

Menu
00:00:00.000 : en:00:00:00.000
00:00:23.440 : en:00:00:23.440
00:01:50.527 : en:00:01:50.527
00:04:22.095 : en:00:04:22.095
00:07:00.003 : en:00:07:00.003
00:10:28.962 : en:00:10:28.962
00:14:19.901 : en:00:14:19.901
00:21:35.294 : en:00:21:35.294
00:24:48.237 : en:00:24:48.237
00:29:45.867 : en:00:29:45.867
00:31:33.475 : en:00:31:33.475
00:33:48.526 : en:00:33:48.526
00:34:50.505 : en:00:34:50.505
00:36:05.121 : en:00:36:05.121
00:38:25.929 : en:00:38:25.929
00:39:25.363 : en:00:39:25.363
00:40:56.371 : en:00:40:56.371
00:42:12.780 : en:00:42:12.780
00:44:02.014 : en:00:44:02.014
00:45:50.414 : en:00:45:50.414
00:47:50.076 : en:00:47:50.076
00:50:21.018 : en:00:50:21.018
00:53:01.428 : en:00:53:01.428
00:56:44.818 : en:00:56:44.818
00:58:56.700 : en:00:58:56.700
01:00:46.059 : en:01:00:46.059
01:03:41.192 : en:01:03:41.192
01:06:24.355 : en:01:06:24.355
01:11:18.774 : en:01:11:18.774
01:14:01.354 : en:01:14:01.354
01:15:23.477 : en:01:15:23.477
01:17:48.873 : en:01:17:48.873
01:21:40.354 : en:01:21:40.354
01:23:46.897 : en:01:23:46.897
01:28:10.160 : en:01:28:10.160
01:30:52.906 : en:01:30:52.906
01:33:38.488 : en:01:33:38.488
01:35:27.847 : en:01:35:27.847
01:42:44.867 : en:01:42:44.867
01:45:14.016 : en:01:45:14.016
01:49:53.629 : en:01:49:53.629
01:56:22.475 : en:01:56:22.475
01:57:47.602 : en:01:57:47.602
02:00:29.180 : en:02:00:29.180
02:04:48.981 : en:02:04:48.981
02:07:41.946 : en:02:07:41.946
02:11:23.667 : en:02:11:23.667
02:12:54.884 : en:02:12:54.884
02:14:49.248 : en:02:14:49.248
02:15:54.938 : en:02:15:54.938

Source:



Next movie:

Files:

  • Star Wars Episode II - Attack of the Clones (2002) [1080p x265 HEVC 10bit BluRay AAC 6.1] [Prof].mkv (5.2 GB)

Comments

Code:

  • udp://tracker.coppersurfer.tk:6969/announce
  • udp://tracker.internetwarriors.net:1337/announce
  • udp://tracker.openbittorrent.com:80/announce
  • udp://retracker.lanta-net.ru:2710/announce
  • udp://tracker.torrent.eu.org:451/announce
  • udp://tracker.tiny-vps.com:6969/announce
  • udp://denis.stalker.upeer.me:6969/announce
  • udp://bt.xxx-tracker.com:2710/announce
  • udp://tracker.cyberia.is:6969/announce
  • udp://open.stealth.si:80/announce