Accepted 2006 x264 720p Esub BluRay Dual Audio English Hindi GOPI...

  • Category Movies
  • Type Dubs/Dual Audio
  • Language English
  • Total size 907.1 MB
  • Uploaded By PENDUDESI
  • Downloads 1113
  • Last checked 5 days ago
  • Date uploaded 1 week ago
  • Seeders 14
  • Leechers 7

Accepted

Comedy

A high school slacker who's rejected by every school he applies to opts to create his own institution of higher learning, the South Harmon Institute of Technology, on a rundown piece of property near his hometown.

Infohash : 04CC8B3665AC4C4E999319C107B98F28579BA9A9

https://www.gopisahi.xyz/



Accepted 2006 x264 720p Esub BluRay Dual Audio English Hindi GOPISAHI

Format : Matroska
Format version : Version 4
File size : 907 MiB
Duration : 1 h 33 min
Overall bit rate : 1 362 kb/s
Movie name : Accepted 2006 GOPISAHI

Video
Format : AVC
Format/Info : Advanced Video Codec
Format profile : [email protected]
Codec ID : V_MPEG4/ISO/AVC
Duration : 1 h 33 min
Bit rate : 1 050 kb/s
Width : 1 280 pixels
Height : 544 pixels
Display aspect ratio : 2.35:1
Frame rate mode : Constant
Frame rate : 23.976 (24000/1001) FPS
Color space : YUV
Chroma subsampling : 4:2:0
Bit depth : 8 bits
Scan type : Progressive
Bits/(Pixel*Frame) : 0.063
Stream size : 699 MiB (77%)
Title : GOPISAHI
Writing library : x264

Audio #1
Format : AAC LC
Duration : 1 h 32 min
Bit rate : 192 kb/s
Channel(s) : 6 channels
Channel layout : C L R Ls Rs LFE
Sampling rate : 48.0 kHz
Frame rate : 46.875 FPS (1024 SPF)
Compression mode : Lossy
Delay relative to video : 1 s 93 ms
Stream size : 128 MiB (14%)
Title : GOPISAHI
Language : Hindi

Audio #2
Format : AAC LC
Duration : 1 h 33 min
Bit rate : 117 kb/s
Channel(s) : 2 channels
Channel layout : L R
Sampling rate : 48.0 kHz
Frame rate : 46.875 FPS (1024 SPF)
Compression mode : Lossy
Delay relative to video : -43 ms
Stream size : 77.9 MiB (9%)
Title : GOPISAHI
Language : English

Text
Format : ASS
Codec ID : S_TEXT/ASS
Codec ID/Info : Advanced Sub Station Alpha
Language : English





Files:

  • Accepted 2006 x264 720p Esub BluRay Dual Audio English Hindi GOPISAHI.mkv (907.1 MB)

There are currently no comments. Feel free to leave one :)

Code:

  • udp://tracker.coppersurfer.tk:6969/announce
  • udp://tracker.opentrackr.org:1337/announce
  • udp://explodie.org:6969/announce
  • udp://9.rarbg.to:2790/announce
  • udp://bt.xxx-tracker.com:2710/announce
  • udp://tracker.internetwarriors.net:1337/announce
  • udp://tracker.openbittorrent.com:80/announce
  • udp://tracker.tiny-vps.com:6969/announce
  • udp://open.demonii.si:1337/announce
  • udp://tracker.torrent.eu.org:451/announce
  • udp://tracker.pirateparty.gr:6969/announce
  • udp://ipv4.tracker.harry.lu:80/announce
  • udp://tracker.cyberia.is:6969/announce
  • udp://9.rarbg.to:2790/announce